מאמרים אחרונים

שתף בפייסבוק שיתוף בפייסבוק
RSS - מאמריםמאמרים
RSS - פורומיםפורומים
דווח למנהל דיווח למנהל
קישור לעמוד זה קישור לעמוד זה


איך לדעת אם סרט תומך ב hdr?


   פורומים > וידאו > טלויזיה מהרשת
מחבר הודעה
Lior98
חבר שרק התחיל
חבר שרק התחיל

הצטרף בתאריך:
  Aug 25, 2018
הבעות תודה: 2
מספר הודעות: 42

 #1  נשלח: א' 16/09/2018 10:39
איך לדעת אם סרט תומך ב hdr?

היי נניח אני מוריד סרטים מהאינטרנט 2160p (שאגב מעניין אותי לדעת אם יש ב1080p סרטים של hdr או שזה רק מ 2160p) איפה כתוב שהסרט תומך ב hdr? ב mediainfo זה יופיע? כל סרט שהוא יהיה uhd זה אומר ש hdr כלול בתוכו?


תודה.
| פרופיל | שלח הודעה | חפש
oferlaor (עפר לאור)
מנהל
מנהל


הצטרף בתאריך:
  Nov 10, 2004

מיקום: מודיעין, ישראל
הבעות תודה: 3374
מספר הודעות: 67637

 #2  נשלח: א' 16/09/2018 13:59

ממש לא. אין קשר. יש גם תכני FHD שהם HDR. אם זה מהרשת אז לרוב זה מסומן (10ביט, או שכתוב HDR).
_________________
נא לא להאכיל את הטרול
| פרופיל | שלח הודעה | חפש
Lior98
חבר שרק התחיל
חבר שרק התחיל

הצטרף בתאריך:
  Aug 25, 2018
הבעות תודה: 2
מספר הודעות: 42

 #3  נשלח: א' 16/09/2018 14:55

oferlaor כתב:
ממש לא. אין קשר. יש גם תכני FHD שהם HDR. אם זה מהרשת אז לרוב זה מסומן (10ביט, או שכתוב HDR).


·השאלה איפה כתוב 10 ביט או hdr אתה מתכוון בשם של הקובץ? ב media info? אם יש לי את ה media info של הסרט בקטגוריה של video זה אמור להיות כתוב משהו דומה שאדע לבדוק סרטים מראש לפני שאוריד?
| פרופיל | שלח הודעה | חפש
oferlaor (עפר לאור)
מנהל
מנהל


הצטרף בתאריך:
  Nov 10, 2004

מיקום: מודיעין, ישראל
הבעות תודה: 3374
מספר הודעות: 67637

 #4  נשלח: א' 16/09/2018 15:26

דוגמא לנתונים שיכולים לעזור לך לזהות ב-MEDIA INFO/. סימנתי את הדברים החשובים ב-BOLD.

הפורמט חייב להיות HEVC / H265 (כי MP4 ו-H264 לא תומכים ב-HDR). לפעמים ממש כתוב HDR10.

מספר הביטים חייב להיות 10 ביט לפחות. ובשביל גמוט הצבעים המורחבים אתה צריך קונטיינר של BT2020



Video
ID : 4113 (0x1011)
Menu ID : 1 (0x1)
Format : HEVC
Format/Info : High Efficiency Video Coding
Commercial name : HDR10
Format profile : Main [email protected]@High
Codec ID : 36
Duration : 2 h 13 min
Bit rate : 54.7 Mb/s
Width : 3 840 pixels
Height : 2 160 pixels
Display aspect ratio : 16:9
Frame rate : 23.976 (24000/1001) FPS
Color space : YUV
Chroma subsampling : 4:2:0 (Type 2)
Bit depth : 10 bits
Bits/(Pixel*Frame) : 0.275
Stream size : 51.2 GiB (93%)
Writing library : ATEME Titan File 3.8.16 (4.8.16.0)
Color range : Limited
Color primaries : BT.2020

_________________
נא לא להאכיל את הטרול
| פרופיל | שלח הודעה | חפש
Lior98
חבר שרק התחיל
חבר שרק התחיל

הצטרף בתאריך:
  Aug 25, 2018
הבעות תודה: 2
מספר הודעות: 42

 #5  נשלח: א' 16/09/2018 15:46

oferlaor כתב:
דוגמא לנתונים שיכולים לעזור לך לזהות ב-MEDIA INFO/. סימנתי את הדברים החשובים ב-BOLD.

הפורמט חייב להיות HEVC / H265 (כי MP4 ו-H264 לא תומכים ב-HDR). לפעמים ממש כתוב HDR10.

מספר הביטים חייב להיות 10 ביט לפחות. ובשביל גמוט הצבעים המורחבים אתה צריך קונטיינר של BT2020



Video
ID : 4113 (0x1011)
Menu ID : 1 (0x1)
Format : HEVC
Format/Info : High Efficiency Video Coding
Commercial name : HDR10
Format profile : Main [email protected]@High
Codec ID : 36
Duration : 2 h 13 min
Bit rate : 54.7 Mb/s
Width : 3 840 pixels
Height : 2 160 pixels
Display aspect ratio : 16:9
Frame rate : 23.976 (24000/1001) FPS
Color space : YUV
Chroma subsampling : 4:2:0 (Type 2)
Bit depth : 10 bits
Bits/(Pixel*Frame) : 0.275
Stream size : 51.2 GiB (93%)
Writing library : ATEME Titan File 3.8.16 (4.8.16.0)
Color range : Limited
Color primaries : BT.2020


·הדבר היחיד שעזר לי זה Commercial name כי בשאר הדברים כמו רזולוציה וכאלה זה עדיין לא אומר לי שזה hdr גם h265 כי זה פורמט של ultra hd רק בשביל לוודא נניח זה בלי hdr מה יהיה כתוב ב bit depth? ראיתי סרטי 2160p שכתוב 8 bit depth זה אומר שזה חא תומך ב hdr? רק שיש תמספר 10 זה אומר שזה תומך?
| פרופיל | שלח הודעה | חפש
oferlaor (עפר לאור)
מנהל
מנהל


הצטרף בתאריך:
  Nov 10, 2004

מיקום: מודיעין, ישראל
הבעות תודה: 3374
מספר הודעות: 67637

 #6  נשלח: א' 16/09/2018 15:57

אם אתה רואה 8 ביט אז זה לא HDR.
אם אתה רואה color primaries BT709 אז זה לא HDR.
אם אתה רואה רזולוציה נמוכה מ-3840 ברוחב התמונה אז זה לא 4K (עקרונית 3840 פיקסלים על 2160 זה מסך מלא של 4K, אבל יש תכנים שהם ביחס מסך גבוה יותר ולכן הגובה יהיה מספר נמוך יותר).
אם אתה רואה פורמט שהוא H264 או VP9 או MP4 אז זה ללא HDR.

_________________
נא לא להאכיל את הטרול
| פרופיל | שלח הודעה | חפש
Lior98
חבר שרק התחיל
חבר שרק התחיל

הצטרף בתאריך:
  Aug 25, 2018
הבעות תודה: 2
מספר הודעות: 42

 #7  נשלח: א' 16/09/2018 17:39

oferlaor כתב:
אם אתה רואה 8 ביט אז זה לא HDR.
אם אתה רואה color primaries BT709 אז זה לא HDR.
אם אתה רואה רזולוציה נמוכה מ-3840 ברוחב התמונה אז זה לא 4K (עקרונית 3840 פיקסלים על 2160 זה מסך מלא של 4K, אבל יש תכנים שהם ביחס מסך גבוה יותר ולכן הגובה יהיה מספר נמוך יותר).
אם אתה רואה פורמט שהוא H264 או VP9 או MP4 אז זה ללא HDR.


·הבנתי תודה רבה!

רק אגב זה לא מחייב שסרט שהוא בפורמט h264 זה אומר שזה ללא hdr כי יש סרטים שהם h265 (2160p) והם עדיין בלי hdr אבל אכן אני אסתכל על הביט ו color primaries
| פרופיל | שלח הודעה | חפש
rwg1 ((גיל))
חבר ותיק
חבר ותיק

הצטרף בתאריך:
  Dec 31, 2005
הבעות תודה: 251
מספר הודעות: 1604

 #8  נשלח: א' 16/09/2018 19:12

עפר, שכחת את הנתון הכי חשוב ב- media info כי וידאו יכול להיות ב- H.265 וב- 10BIT ולהיות ב- SDR,
ווידאו גם יכול להיות ב- HDR עם primaries של REC.709 .

מהנתונים שניתן לראות ב- media info הנתון החשוב כדי לדעת אם הוידאו הוא ב- HDR
נקרא transfer characteristics ולוידאו ב- HDR10 הוא צריך להראות SMPTE ST 2084, לוידאו תקין
ב- HLG הוא צריך להראות HLG / BT.2020 non-constant כי יש מקרים שהוא מראה רק HLG ואז
המסך כנראה רק ישתמש ב- EOTF של HLG מבלי לעבור למצב HDR.

לוידאו ב- HDR10 יהיה ניתן גם לראות קטגוריות נוספות שמראות נתונים על מסך הרפרנס כמו ה-primaries
שהוא יכול להגיע אליהם\או שהוא מכוון אליהם ויכולות ההארה המינימלית והמקסימלית שלו.
| פרופיל | שלח הודעה | חפש
Lior98
חבר שרק התחיל
חבר שרק התחיל

הצטרף בתאריך:
  Aug 25, 2018
הבעות תודה: 2
מספר הודעות: 42

 #9  נשלח: א' 16/09/2018 19:24

rwg1 כתב:
עפר, שכחת את הנתון הכי חשוב ב- media info כי וידאו יכול להיות ב- H.265 וב- 10BIT ולהיות ב- SDR,
ווידאו גם יכול להיות ב- HDR עם primaries של REC.709 .

מהנתונים שניתן לראות ב- media info הנתון החשוב כדי לדעת אם הוידאו הוא ב- HDR
נקרא transfer characteristics ולוידאו ב- HDR10 הוא צריך להראות SMPTE ST 2084, לוידאו תקין
ב- HLG הוא צריך להראות HLG / BT.2020 non-constant כי יש מקרים שהוא מראה רק HLG ואז
המסך כנראה רק ישתמש ב- EOTF של HLG מבלי לעבור למצב HDR.

לוידאו ב- HDR10 יהיה ניתן גם לראות קטגוריות נוספות שמראות נתונים על מסך הרפרנס כמו ה-primaries
שהוא יכול להגיע אליהם\או שהוא מכוון אליהם ויכולות ההארה המינימלית והמקסימלית שלו.

עד שהבנתי בלבלת אותי עוד פעם... מה זה
·transfer characteristics זה לא מופיע לי ב media info.. למה זה מסובך ואין פשוט ב media info hdron/off
| פרופיל | שלח הודעה | חפש
rwg1 ((גיל))
חבר ותיק
חבר ותיק

הצטרף בתאריך:
  Dec 31, 2005
הבעות תודה: 251
מספר הודעות: 1604

 #10  נשלח: א' 16/09/2018 21:26

Lior98

התמונה היא צילום מסך של media info שמראה נתונים של וידאו תקין ב-HDR10.
החץ האדום העליון מצביע על הנתון transfer characteristics, נתון זה אומר למסך באיזה EOTF
צריך להשתמש כדי לנגן נכון את הוידאו, אך בעצם הוא גם גורם למסך לעבור למצב HDR.

החץ האדום השני מצביע על שורה ראשונה משתיים בהם מעבירים למסך את נתוני מסך הרפרנס
שבמקרה הזה הוא ה- Sony BVM-X300.


HDR 10

| פרופיל | שלח הודעה | חפש
rwg1 ((גיל))
חבר ותיק
חבר ותיק

הצטרף בתאריך:
  Dec 31, 2005
הבעות תודה: 251
מספר הודעות: 1604

 #11  נשלח: א' 16/09/2018 21:30

בשתי התמונת הבאות ניתן לראות צילומי מסך של media info שמראה בצילום הראשון נתונים של וידאו לא
תקין ב- HLG, ובצילום השני וידאו תקין ב- HLG.


וידאו HLG לא תקין

וידאו HLG תקין

| פרופיל | שלח הודעה | חפש
כל הזמנים הם שעון קיץ - ישראל (GMT+3) הצג הודעות קודמות:    
פורומים > טלויזיה מהרשת


  
    שם משתמש:
נתוני כניסה לכל אתרי HT:

  סיסמא:
 

  


 | 

קפוץ אל: 
לא ניתן לשלוח הודעות בפורום זה
לא ניתן להגיב להודעות בפורום זה
לא ניתן לערוך את הודעותיך בפורום זה
לא ניתן למחוק את הודעותיך בפורום זה
לא ניתן להצביע לסקרים בפורום זה
לא ניתן לצרף קבצים בפורום זה
לא ניתן להוריד קבצים בפורום זה

תקנון / תנאי השימוש באתר צור קשר / contact us כל הזכויות שמורות לקבוצת ht